Vikings S05 Parte 2 [LATINO] [E12] [MKV] [1080p] [GD-ZP-OP+]

Posted on Posted in Series
Vikings S05 Parte 2 [LATINO]
Vikings S05 Parte 2 [LATINO]

Serie de TV (2013-Actualidad). Narra las aventuras del héroe Ragnar Lothbrok, de sus hermanos vikingos y su familia, cuando él se subleva para convertirse en el rey de las tribus vikingas. Además de ser un guerrero valiente, Ragnar encarna las tradiciones nórdicas de la devoción a los dioses. Según la leyenda era descendiente directo del dios Odín.

Datos Técnicos:

Clic Para Expandir

General
Unique ID : 79063050095637277630090834376260871445 (0x3B7AFD5449A3F4E3EA32D1A452A46515)
Complete name : /home/redondit0/local/Vikings.S05E11.WEB-DL.Lat.mkv
Format : Matroska
Format version : Version 4 / Version 2
File size : 1.78 GiB
Duration : 44 min 49 s
Overall bit rate : 5 701 kb/s
Movie name : www.redondito.net
Encoded date : UTC 2018-12-02 01:11:18
Writing application : mkvmerge v9.8.0 (‘Kuglblids’) 64bit
Writing library : libebml v1.3.4 + libmatroska v1.4.5

Video
ID : 1
Format : AVC
Format/Info : Advanced Video Codec
Format profile : High@L4
Format settings, CABAC : Yes
Format settings, ReFrames : 4 frames
Codec ID : V_MPEG4/ISO/AVC
Duration : 44 min 49 s
Bit rate : 4 930 kb/s
Width : 1 920 pixels
Height : 1 080 pixels
Display aspect ratio : 16:9
Frame rate mode : Constant
Frame rate : 23.976 (24000/1001) FPS
Color space : YUV
Chroma subsampling : 4:2:0
Bit depth : 8 bits
Scan type : Progressive
Bits/(Pixel*Frame) : 0.099
Stream size : 1.54 GiB (86%)
Default : Yes
Forced : No
Color range : Limited
Color primaries : BT.709
Transfer characteristics : BT.709
Matrix coefficients : BT.709

Audio #1
ID : 2
Format : E-AC-3
Format/Info : Enhanced Audio Coding 3
Format settings, Endianness : Big
Codec ID : A_EAC3
Duration : 44 min 49 s
Bit rate mode : Constant
Bit rate : 640 kb/s
Channel(s) : 6 channels
Channel positions : Front: L C R, Side: L R, LFE
Sampling rate : 48.0 kHz
Frame rate : 187.500 FPS (256 spf)
Compression mode : Lossy
Stream size : 205 MiB (11%)
Title : English
Language : English
Default : Yes
Forced : No

Audio #2
ID : 4
Format : AAC
Format/Info : Advanced Audio Codec
Format profile : LC
Codec ID : A_AAC
Duration : 44 min 49 s
Bit rate : 128 kb/s
Channel(s) : 2 channels
Channel positions : Front: L R
Sampling rate : 48.0 kHz
Frame rate : 46.875 FPS (1024 spf)
Compression mode : Lossy
Stream size : 41.1 MiB (2%)
Title : Latino
Language : Spanish
Default : Yes
Forced : No

Text
ID : 3
Format : UTF-8
Codec ID : S_TEXT/UTF8
Codec ID/Info : UTF-8 Plain Text
Duration : 43 min 49 s
Bit rate : 51 b/s
Count of elements : 609
Stream size : 16.4 KiB (0%)
Title : English (SDH)
Language : English
Default : No
Forced : No

RAR LIST:
1 496M V1K1N65.505311.W38-DL.L471.rev
2 496M V1K1N65.505311.W38-DL.L47.r00
3 496M V1K1N65.505311.W38-DL.L47.r01
4 348M V1K1N65.505311.W38-DL.L47.r02
5 496M V1K1N65.505311.W38-DL.L47.rar
6 4.0K V1K1N65.505311.W38-DL.L47.sfv
7 2.3G total

[collapse]
LINK DE DESCARGA

Archivos con 5% de recuperación

loading...

DESCARGA DESDE TODOS LOS SERVIDORES A VELOCIDAD PREMIUM!

Dejá un comentario

Tu dirección de correo electrónico no será publicada. Los campos necesarios están marcados *