Venom 2018 [LATINO] [BDRIP] MKV] [1920x800p] [GD-ZP-OP+]

Posted on Posted in Peliculas
Venom 2018 [LATINO] [BDRIP]
Venom 2018 [LATINO] [BDRIP]

Venom es un spin-off de uno de los villanos más conocidos del Universo Marvel. Producida por Sony, esta película se centrará en uno de los mayores enemigos de Peter Parker, teniendo al villano de Spider-Man 3 como protagonista del filme, que está interpretado por Tom Hardy. Venom vive dentro de Eddie Brock, un antiguo y respetado periodista que, tras perderlo todo a nivel profesional, e incitado por su odio hacia Spider-Man decidió dejar que el simbionte se introdujese en él. La película sobre el personaje creado por David Micheliene y Todd McFarlane, está producida por Avid Arad, Matthew Tolmach y Amy Pascal, dirigida por Ruben Fleischer (Bienvenidos a Zombieland) y escrita por Scott Rosenberg (Alta fidelidad) y Jeff Pinkner (The Amazing Spider-Man 2: El poder de Electro).

Datos Técnicos:

Clic Para Expandir

General
Unique ID : 200968748739453282543817457114666810312 (0x97312C50D3EC7981D2D39F041130BBC8)
Complete name : Venom.2018.BDRip.Lat.mkv
Format : Matroska
Format version : Version 4 / Version 2
File size : 9.68 GiB
Duration : 1 h 52 min
Overall bit rate : 12.4 Mb/s
Movie name : www.redondito.net
Encoded date : UTC 2018-11-28 04:33:08
Writing application : mkvmerge v27.0.0 (‘Metropolis’) 64-bit
Writing library : libebml v1.3.6 + libmatroska v1.4.9

Video
ID : 1
Format : AVC
Format/Info : Advanced Video Codec
Format profile : High@L4.1
Format settings, CABAC : Yes
Format settings, ReFrames : 4 frames
Codec ID : V_MPEG4/ISO/AVC
Duration : 1 h 52 min
Bit rate : 11.0 Mb/s
Width : 1 920 pixels
Height : 800 pixels
Display aspect ratio : 2.40:1
Frame rate mode : Constant
Frame rate : 23.976 (24000/1001) FPS
Color space : YUV
Chroma subsampling : 4:2:0
Bit depth : 8 bits
Scan type : Progressive
Bits/(Pixel*Frame) : 0.299
Stream size : 8.57 GiB (89%)
Writing library : x264 core 155 r2901 7d0ff22
Encoding settings : cabac=1 / ref=3 / deblock=1:-1:-1 / analyse=0x3:0x113 / me=hex / subme=7 / psy=1 / psy_rd=1.00:0.15 / mixed_ref=1 / me_range=16 / chroma_me=1 / trellis=1 / 8x8dct=1 / cqm=0 / deadzone=21,11 / fast_pskip=1 / chroma_qp_offset=-3 / threads=18 / lookahead_threads=3 / sliced_threads=0 / nr=0 / decimate=1 / interlaced=0 / bluray_compat=0 / constrained_intra=0 / bframes=3 / b_pyramid=2 / b_adapt=1 / b_bias=0 / direct=1 / weightb=1 / open_gop=0 / weightp=2 / keyint=240 / keyint_min=24 / scenecut=40 / intra_refresh=0 / rc_lookahead=40 / rc=abr / mbtree=1 / bitrate=11000 / ratetol=1.0 / qcomp=0.60 / qpmin=0 / qpmax=69 / qpstep=4 / vbv_maxrate=62500 / vbv_bufsize=78125 / nal_hrd=none / filler=0 / ip_ratio=1.40 / aq=1:1.00
Default : Yes
Forced : No
Color range : Limited
Color primaries : BT.709
Transfer characteristics : BT.709
Matrix coefficients : BT.709

Audio #1
ID : 2
Format : AC-3
Format/Info : Audio Coding 3
Mode extension : CM (complete main)
Format settings, Endianness : Big
Codec ID : A_AC3
Duration : 1 h 52 min
Bit rate mode : Constant
Bit rate : 256 kb/s
Channel(s) : 2 channels
Channel positions : Front: L R
Sampling rate : 44.1 kHz
Frame rate : 28.711 FPS (1536 spf)
Bit depth : 16 bits
Compression mode : Lossy
Delay relative to video : -5 ms
Stream size : 205 MiB (2%)
Title : Latino
Language : Spanish
Default : Yes
Forced : Yes

Audio #2
ID : 3
Format : DTS
Format/Info : Digital Theater Systems
Mode : 16
Format settings, Endianness : Big
Codec ID : A_DTS
Duration : 1 h 52 min
Bit rate mode : Constant
Bit rate : 1 152 kb/s
Channel(s) : 6 channels
Channel positions : Front: L C R, Side: L R, LFE
Sampling rate : 48.0 kHz
Frame rate : 93.750 FPS (512 spf)
Bit depth : 24 bits
Compression mode : Lossy
Delay relative to video : -5 ms
Stream size : 924 MiB (9%)
Title : Ingles
Language : English
Default : No
Forced : No

Text #1
ID : 4
Format : UTF-8
Codec ID : S_TEXT/UTF8
Codec ID/Info : UTF-8 Plain Text
Duration : 1 h 33 min
Bit rate : 0 b/s
Count of elements : 20
Stream size : 512 Bytes (0%)
Title : Forzados
Language : Spanish
Default : Yes
Forced : Yes

Text #2
ID : 5
Format : UTF-8
Codec ID : S_TEXT/UTF8
Codec ID/Info : UTF-8 Plain Text
Duration : 1 h 50 min
Bit rate : 46 b/s
Count of elements : 1185
Stream size : 37.5 KiB (0%)
Title : Completos
Language : Spanish
Default : No
Forced : No

RAR LIST:
1 496M V3N0M.2018.8DR19.L47.part01.rar
2 496M V3N0M.2018.8DR19.L47.part01.rev
3 496M V3N0M.2018.8DR19.L47.part02.rar
4 496M V3N0M.2018.8DR19.L47.part03.rar
5 496M V3N0M.2018.8DR19.L47.part04.rar
6 496M V3N0M.2018.8DR19.L47.part05.rar
7 496M V3N0M.2018.8DR19.L47.part06.rar
8 496M V3N0M.2018.8DR19.L47.part07.rar
9 496M V3N0M.2018.8DR19.L47.part08.rar
10 496M V3N0M.2018.8DR19.L47.part09.rar
11 496M V3N0M.2018.8DR19.L47.part10.rar
12 496M V3N0M.2018.8DR19.L47.part11.rar
13 496M V3N0M.2018.8DR19.L47.part12.rar
14 496M V3N0M.2018.8DR19.L47.part13.rar
15 496M V3N0M.2018.8DR19.L47.part14.rar
16 496M V3N0M.2018.8DR19.L47.part15.rar
17 496M V3N0M.2018.8DR19.L47.part16.rar
18 496M V3N0M.2018.8DR19.L47.part17.rar
19 496M V3N0M.2018.8DR19.L47.part18.rar
20 496M V3N0M.2018.8DR19.L47.part19.rar
21 496M V3N0M.2018.8DR19.L47.part20.rar
22 496M V3N0M.2018.8DR19.L47.part21.rar
23 6.4M V3N0M.2018.8DR19.L47.part22.rar
24 4.0K V3N0M.2018.8DR19.L47.sfv
25 11G total

[collapse]
LINK DE DESCARGA

Archivos con 5% de recuperación

loading...

DESCARGA DESDE TODOS LOS SERVIDORES A VELOCIDAD PREMIUM!

Dejá un comentario

Tu dirección de correo electrónico no será publicada. Los campos necesarios están marcados *