The Predator 2018 [LATINO] [MKV] [WEB-DL] [1920x802p] [GD-ZP-OP+]

Posted on Posted in Peliculas
The Predator 2018 [LATINO]
The Predator 2018 [LATINO]

Desde los confines del espacio hasta los suburbios de las pequeñas ciudades, la búsqueda llega a la casa de la reinvención por Shane Black de la saga “Predator”. Ahora, los cazadores más letales del universo son más fuertes, más inteligentes y más mortales que nunca, y se han mejorado genéticamente con ADN de otras especies. Cuando un niño accidentalmente desencadena su regreso a la Tierra, solo un grupo de ex soldados y una profesora de ciencias podrán evitar, quizá el fin de la raza humana…

Datos Técnicos:

Clic Para Expandir

General
Unique ID : 309320483405580723710041421779787668702 (0xE8B4F548AF02E51D865C7B7C2F6D5CDE)
Complete name : The.Predator.2018.1080p.WEB-DL.DD5.Latino.mkv
Format : Matroska
Format version : Version 4 / Version 2
File size : 3.90 GiB
Duration : 1 h 47 min
Overall bit rate : 5 195 kb/s
Movie name : www.redondito.net
Encoded date : UTC 2018-11-27 17:38:17
Writing application : mkvmerge v9.8.0 (‘Kuglblids’) 64bit
Writing library : libebml v1.3.4 + libmatroska v1.4.5
Cover : Yes
Attachments : small_cover.jpg / small_cover_land.jpg / cover.jpg / cover_land.jpg

Video
ID : 1
Format : AVC
Format/Info : Advanced Video Codec
Format profile : High@L4
Format settings, CABAC : Yes
Format settings, ReFrames : 5 frames
Codec ID : V_MPEG4/ISO/AVC
Duration : 1 h 47 min
Bit rate : 4 556 kb/s
Width : 1 920 pixels
Height : 802 pixels
Display aspect ratio : 2.40:1
Frame rate mode : Constant
Frame rate : 23.976 FPS
Color space : YUV
Chroma subsampling : 4:2:0
Bit depth : 8 bits
Scan type : Progressive
Bits/(Pixel*Frame) : 0.123
Stream size : 3.42 GiB (88%)
Language : English
Default : Yes
Forced : No
Color range : Limited
Color primaries : BT.709
Transfer characteristics : BT.709
Matrix coefficients : BT.709

Audio #1
ID : 2
Format : AC-3
Format/Info : Audio Coding 3
Mode extension : CM (complete main)
Format settings, Endianness : Big
Codec ID : A_AC3
Duration : 1 h 46 min
Bit rate mode : Constant
Bit rate : 256 kb/s
Channel(s) : 2 channels
Channel positions : Front: L R
Sampling rate : 48.0 kHz
Frame rate : 31.250 FPS (1536 spf)
Bit depth : 16 bits
Compression mode : Lossy
Delay relative to video : -43 ms
Stream size : 196 MiB (5%)
Language : Spanish
Default : Yes
Forced : No

Audio #2
ID : 3
Format : AC-3
Format/Info : Audio Coding 3
Mode extension : CM (complete main)
Format settings, Endianness : Big
Codec ID : A_AC3
Duration : 1 h 46 min
Bit rate mode : Constant
Bit rate : 384 kb/s
Channel(s) : 6 channels
Channel positions : Front: L C R, Side: L R, LFE
Sampling rate : 48.0 kHz
Frame rate : 31.250 FPS (1536 spf)
Bit depth : 16 bits
Compression mode : Lossy
Delay relative to video : -43 ms
Stream size : 294 MiB (7%)
Language : English
Default : No
Forced : No

Text #1
ID : 4
Format : UTF-8
Codec ID : S_TEXT/UTF8
Codec ID/Info : UTF-8 Plain Text
Duration : 1 h 45 min
Bit rate : 42 b/s
Count of elements : 1161
Stream size : 32.7 KiB (0%)
Language : Spanish
Default : No
Forced : No

Text #2
ID : 5
Format : UTF-8
Codec ID : S_TEXT/UTF8
Codec ID/Info : UTF-8 Plain Text
Duration : 1 h 45 min
Bit rate : 40 b/s
Count of elements : 1161
Stream size : 31.2 KiB (0%)
Default : Yes
Forced : No

RAR LIST:
1 496M 7H3.9R3D470R.2018.10809.W38-DL.DD5.L471N01.rev
2 496M 7H3.9R3D470R.2018.10809.W38-DL.DD5.L471N0.r00
3 496M 7H3.9R3D470R.2018.10809.W38-DL.DD5.L471N0.r01
4 496M 7H3.9R3D470R.2018.10809.W38-DL.DD5.L471N0.r02
5 496M 7H3.9R3D470R.2018.10809.W38-DL.DD5.L471N0.r03
6 496M 7H3.9R3D470R.2018.10809.W38-DL.DD5.L471N0.r04
7 496M 7H3.9R3D470R.2018.10809.W38-DL.DD5.L471N0.r05
8 496M 7H3.9R3D470R.2018.10809.W38-DL.DD5.L471N0.r06
9 47M 7H3.9R3D470R.2018.10809.W38-DL.DD5.L471N0.r07
10 496M 7H3.9R3D470R.2018.10809.W38-DL.DD5.L471N0.rar
11 4.0K 7H3.9R3D470R.2018.10809.W38-DL.DD5.L471N0.sfv
12 4.5G total

[collapse]
LINK DE DESCARGA

Archivos con 5% de recuperación

loading...

DESCARGA DESDE TODOS LOS SERVIDORES A VELOCIDAD PREMIUM!

Dejá un comentario

Tu dirección de correo electrónico no será publicada. Los campos necesarios están marcados *