The Nun 2018 [LATINO] [MKV] [WEB-DL] [1920x804p] [GD-ZP-OP+]

Posted on Posted in Peliculas
The Nun 2018 [LATINO]
The Nun 2018 [LATINO]

Cuando una joven monja se suicida en una abadía de clausura en Rumania, un sacerdote experto en posesiones demoniacas y una novicia a punto de tomar sus votos, son enviados por el Vaticano para investigar. Juntos descubren el profano secreto de la orden. Arriesgando no solo sus propias vidas sino su fe y hasta sus almas, se enfrentan a una fuerza maléfica en forma de monja demoníaca, en una abadía que se convierte en un campo de batalla de horror entre los vivos y los condenados…

Datos Técnicos:

Clic Para Expandir

General
Unique ID : 334711256309886586533376572208691111625 (0xFBCF0B0A3E956FA630BD573E16C566C9)
Complete name : The.Nun.2018.1080p.WEB-DL.Lat.mkv
Format : Matroska
Format version : Version 4 / Version 2
File size : 3.59 GiB
Duration : 1 h 35 min
Overall bit rate : 5 369 kb/s
Movie name : www.redondito.net
Encoded date : UTC 2018-11-20 06:05:46
Writing application : mkvmerge v20.0.0 (‘I Am The Sun’) 64-bit
Writing library : libebml v1.3.5 + libmatroska v1.4.8

Video
ID : 1
Format : AVC
Format/Info : Advanced Video Codec
Format profile : High@L4.1
Format settings, CABAC : Yes
Format settings, ReFrames : 4 frames
Codec ID : V_MPEG4/ISO/AVC
Duration : 1 h 35 min
Bit rate : 4 599 kb/s
Width : 1 920 pixels
Height : 804 pixels
Display aspect ratio : 2.40:1
Frame rate mode : Constant
Frame rate : 24.000 FPS
Color space : YUV
Chroma subsampling : 4:2:0
Bit depth : 8 bits
Scan type : Progressive
Bits/(Pixel*Frame) : 0.124
Stream size : 3.08 GiB (86%)
Default : Yes
Forced : No
Color range : Limited
Color primaries : BT.709
Transfer characteristics : BT.709
Matrix coefficients : BT.709

Audio #1
ID : 2
Format : AC-3
Format/Info : Audio Coding 3
Mode extension : CM (complete main)
Format settings, Endianness : Big
Codec ID : A_AC3
Duration : 1 h 35 min
Bit rate mode : Constant
Bit rate : 384 kb/s
Channel(s) : 6 channels
Channel positions : Front: L C R, Side: L R, LFE
Sampling rate : 48.0 kHz
Frame rate : 31.250 FPS (1536 spf)
Bit depth : 16 bits
Compression mode : Lossy
Delay relative to video : 19 ms
Stream size : 263 MiB (7%)
Title : Latino
Language : Spanish
Default : Yes
Forced : Yes

Audio #2
ID : 3
Format : AC-3
Format/Info : Audio Coding 3
Mode extension : CM (complete main)
Format settings, Endianness : Big
Codec ID : A_AC3
Duration : 1 h 35 min
Bit rate mode : Constant
Bit rate : 384 kb/s
Channel(s) : 6 channels
Channel positions : Front: L C R, Side: L R, LFE
Sampling rate : 48.0 kHz
Frame rate : 31.250 FPS (1536 spf)
Bit depth : 16 bits
Compression mode : Lossy
Delay relative to video : 19 ms
Stream size : 263 MiB (7%)
Title : Ingles
Language : English
Default : No
Forced : No

Text #1
ID : 4
Format : UTF-8
Codec ID : S_TEXT/UTF8
Codec ID/Info : UTF-8 Plain Text
Duration : 1 h 28 min
Bit rate : 0 b/s
Count of elements : 12
Stream size : 250 Bytes (0%)
Title : Forzados
Language : Spanish
Default : No
Forced : Yes

Text #2
ID : 5
Format : UTF-8
Codec ID : S_TEXT/UTF8
Codec ID/Info : UTF-8 Plain Text
Duration : 1 h 31 min
Bit rate : 31 b/s
Count of elements : 636
Stream size : 20.9 KiB (0%)
Title : Completos
Language : Spanish
Default : No
Forced : No

Menu
00:00:00.000 : en:1
00:08:03.728 : en:2
00:17:16.697 : en:3
00:28:38.670 : en:4
00:37:26.739 : en:5
00:48:10.674 : en:6
00:58:10.732 : en:7
01:07:19.697 : en:8
01:17:35.688 : en:9
01:23:39.676 : en:10
01:31:50.667 : en:11

RAR LIST:
1 496M 7H3.NUN.2018.10809.W38-DL.L471.rev
2 496M 7H3.NUN.2018.10809.W38-DL.L47.r00
3 496M 7H3.NUN.2018.10809.W38-DL.L47.r01
4 496M 7H3.NUN.2018.10809.W38-DL.L47.r02
5 496M 7H3.NUN.2018.10809.W38-DL.L47.r03
6 496M 7H3.NUN.2018.10809.W38-DL.L47.r04
7 496M 7H3.NUN.2018.10809.W38-DL.L47.r05
8 223M 7H3.NUN.2018.10809.W38-DL.L47.r06
9 496M 7H3.NUN.2018.10809.W38-DL.L47.rar
10 4.0K 7H3.NUN.2018.10809.W38-DL.L47.sfv
11 4.1G total

[collapse]
LINK DE DESCARGA

Archivos con 5% de recuperación

loading...

DESCARGA DESDE TODOS LOS SERVIDORES A VELOCIDAD PREMIUM!

Dejá un comentario

Tu dirección de correo electrónico no será publicada. Los campos necesarios están marcados *