Game Of Thrones S08 COMPLETA [LAT] [MKV] [1080p] [GDRIVE – ZIPPYSHARE +]

Posted on Posted in Series
Game Of Thrones S08
Game Of Thrones S08

La historia se desarrolla en un mundo ficticio de carácter medieval donde hay Siete Reinos. Hay tres líneas argumentales principales: la crónica de la guerra civil dinástica por el control de Poniente entre varias familias nobles que aspiran al Trono de Hierro.

Datos Técnicos:

Clic Para Expandir

General
Unique ID : 79878749386271107040546813912023561476 (0x3C181668C7C9848C35E38E1DCBE7F504)
Complete name : Game.of.Thrones.S08E01.Dual-LAT.mkv
Format : Matroska
Format version : Version 4 / Version 2
File size : 1.98 GiB
Duration : 56 min 9 s
Overall bit rate : 5 036 kb/s
Movie name : TemploDeMomo
Writing application : Lavf57.56.101
Writing library : Lavf57.56.101 / Lavf57.56.101
ErrorDetectionType : Per level 1

Video
ID : 1
Format : AVC
Format/Info : Advanced Video Codec
Format profile : High@L4
Format settings, CABAC : Yes
Format settings, ReFrames : 3 frames
Codec ID : V_MPEG4/ISO/AVC
Duration : 56 min 9 s
Bit rate : 4 360 kb/s
Width : 1 920 pixels
Height : 1 080 pixels
Display aspect ratio : 16:9
Frame rate mode : Constant
Frame rate : 30.000 FPS
Original frame rate : 29.970 (30000/1001) FPS
Color space : YUV
Chroma subsampling : 4:2:0
Bit depth : 8 bits
Scan type : Interlaced
Scan type, store method : Separated fields
Scan order : Top Field First
Bits/(Pixel*Frame) : 0.070
Stream size : 1.71 GiB (87%)
Default : Yes
Forced : No
DURATION : 00:56:09.419000000

Audio #1
ID : 2
Format : AC-3
Format/Info : Audio Coding 3
Mode extension : CM (complete main)
Format settings, Endianness : Big
Codec ID : A_AC3
Duration : 56 min 9 s
Bit rate mode : Constant
Bit rate : 384 kb/s
Channel(s) : 2 channels
Channel positions : Front: L R
Sampling rate : 48.0 kHz
Frame rate : 31.250 FPS (1536 spf)
Bit depth : 16 bits
Compression mode : Lossy
Delay relative to video : -1 s 321 ms
Stream size : 154 MiB (8%)
Language : English
Default : Yes
Forced : No
DURATION : 00:56:08.512000000

Audio #2
ID : 3
Format : AC-3
Format/Info : Audio Coding 3
Mode extension : CM (complete main)
Format settings, Endianness : Big
Codec ID : A_AC3
Duration : 56 min 9 s
Bit rate mode : Constant
Bit rate : 192 kb/s
Channel(s) : 2 channels
Channel positions : Front: L R
Sampling rate : 48.0 kHz
Frame rate : 31.250 FPS (1536 spf)
Bit depth : 16 bits
Compression mode : Lossy
Delay relative to video : -1 s 262 ms
Stream size : 77.1 MiB (4%)
Language : Spanish
Default : Yes
Forced : No
DURATION : 00:56:08.571000000

Text #1
ID : 4
Format : S_DVBSUB
Codec ID : S_DVBSUB
Language : Spanish
Default : Yes
Forced : No
DURATION : 00:55:57.523000000

Text #2
ID : 5
Format : S_DVBSUB
Codec ID : S_DVBSUB
Language : Spanish
Default : Yes
Forced : No
DURATION : 00:55:57.523000000

RAR LIST:
1 496M 64M3.0F.7HR0N35.508301.DU4L-L471.rev
2 496M 64M3.0F.7HR0N35.508301.DU4L-L47.r00
3 496M 64M3.0F.7HR0N35.508301.DU4L-L47.r01
4 496M 64M3.0F.7HR0N35.508301.DU4L-L47.r02
5 48M 64M3.0F.7HR0N35.508301.DU4L-L47.r03
6 496M 64M3.0F.7HR0N35.508301.DU4L-L47.rar
7 4.0K 64M3.0F.7HR0N35.508301.DU4L-L47.sfv
8 2.5G total

[collapse]
LINK DE DESCARGA

Archivos con 5% de recuperación


loading...

DESCARGA DESDE TODOS LOS SERVIDORES A VELOCIDAD PREMIUM!