Ant-Man And The Wasp [SUBT] [MKV] [1920x804p] [GD-ZP-OP+]

Posted on Posted in Peliculas
Ant-Man And The Wasp [SUBT]
Ant-Man And The Wasp [SUBT]

Scott Lang vuelve a enfundarse el traje de Ant-Man para pelear codo con codo junto a la Avispa. La misión revelará a los dos superhéroes un secreto terrible y los enfrentará a su enemigo más poderoso.

Datos Técnicos:

Clic Para Expandir

General
Unique ID : 39656839900694889538887956875796146326 (0x1DD5A129F4CE25DDE4C7B3DCA579E896)
Complete name : Ant.Man.and.the.Wasp.2018.1080p.WEB-DL.Subt.mkv
Format : Matroska
Format version : Version 4 / Version 2
File size : 4.04 GiB
Duration : 1 h 58 min
Overall bit rate : 4 893 kb/s
Movie name : www.redondito.net
Encoded date : UTC 2018-10-02 00:06:52
Writing application : mkvmerge v9.8.0 (‘Kuglblids’) 64bit
Writing library : libebml v1.3.4 + libmatroska v1.4.5

Video
ID : 2
Format : AVC
Format/Info : Advanced Video Codec
Format profile : High@L4
Format settings, CABAC : Yes
Format settings, ReFrames : 5 frames
Codec ID : V_MPEG4/ISO/AVC
Duration : 1 h 58 min
Bit rate : 4 507 kb/s
Width : 1 920 pixels
Height : 804 pixels
Display aspect ratio : 2.40:1
Frame rate mode : Constant
Frame rate : 23.976 (24000/1001) FPS
Color space : YUV
Chroma subsampling : 4:2:0
Bit depth : 8 bits
Scan type : Progressive
Bits/(Pixel*Frame) : 0.122
Stream size : 3.72 GiB (92%)
Language : English
Default : Yes
Forced : No
Color range : Limited
Color primaries : BT.709
Transfer characteristics : BT.709
Matrix coefficients : BT.709

Audio
ID : 1
Format : AC-3
Format/Info : Audio Coding 3
Mode extension : CM (complete main)
Format settings, Endianness : Big
Codec ID : A_AC3
Duration : 1 h 58 min
Bit rate mode : Constant
Bit rate : 384 kb/s
Channel(s) : 6 channels
Channel positions : Front: L C R, Side: L R, LFE
Sampling rate : 48.0 kHz
Frame rate : 31.250 FPS (1536 spf)
Bit depth : 16 bits
Compression mode : Lossy
Delay relative to video : -42 ms
Stream size : 324 MiB (8%)
Language : English
Default : Yes
Forced : No

Text
ID : 3
Format : UTF-8
Codec ID : S_TEXT/UTF8
Codec ID/Info : UTF-8 Plain Text
Duration : 1 h 51 min
Bit rate : 54 b/s
Count of elements : 973
Stream size : 44.4 KiB (0%)
Title : Español
Default : Yes
Forced : No

RAR LIST:
1 496M 4N7.M4N.4ND.7H3.W459.2018.10809.W38-DL.5U871.rev
2 496M 4N7.M4N.4ND.7H3.W459.2018.10809.W38-DL.5U87.r00
3 496M 4N7.M4N.4ND.7H3.W459.2018.10809.W38-DL.5U87.r01
4 496M 4N7.M4N.4ND.7H3.W459.2018.10809.W38-DL.5U87.r02
5 496M 4N7.M4N.4ND.7H3.W459.2018.10809.W38-DL.5U87.r03
6 496M 4N7.M4N.4ND.7H3.W459.2018.10809.W38-DL.5U87.r04
7 496M 4N7.M4N.4ND.7H3.W459.2018.10809.W38-DL.5U87.r05
8 496M 4N7.M4N.4ND.7H3.W459.2018.10809.W38-DL.5U87.r06
9 182M 4N7.M4N.4ND.7H3.W459.2018.10809.W38-DL.5U87.r07
10 496M 4N7.M4N.4ND.7H3.W459.2018.10809.W38-DL.5U87.rar
11 4.0K 4N7.M4N.4ND.7H3.W459.2018.10809.W38-DL.5U87.sfv
12 4.6G total

[collapse]
LINK DE DESCARGA

Archivos con 5% de recuperación

loading...

DESCARGA DESDE TODOS LOS SERVIDORES A VELOCIDAD PREMIUM!