Three Billboards Outside Ebbing Missouri [DUAL LAT] [MKV] [1920x802p] [4.2Gb] [GOOGLE DRIVE-MEGA-UPTO+]

Posted on Posted in Peliculas
Three Billboards Outside Ebbing Missouri (Tres Anuncios Por Un Crimen)
Three Billboards Outside Ebbing Missouri

Mildred Hayes (Frances McDormand), una mujer de 50 años cuya hija adolescente ha sido violada y asesinada, decide iniciar por su cuenta una guerra contra la Policía de su pueblo, Ebbing, al considerar que no hacen lo suficiente para resolver el caso y que se haga justicia. Su primer paso será contratar unas vallas publicitarias denunciando la situación y señalando al jefe de policía, William Willoughby (Woody Harrelson), como responsable principal de la pasividad policial.

Datos Técnicos:

Clic Para Expandir

General
Unique ID : 250793529251835566957202108748410776583 (0xBCAD13A82595023DB31F595CCC99EC07)
Complete name : M:\Redondito_\Subidas\Three.Billboards.Outside.Ebbing,Missouri.Lat.mkv
Format : Matroska
Format version : Version 4 / Version 2
File size : 4.22 GiB
Duration : 1 h 55 min
Overall bit rate : 5 235 kb/s
Movie name : Twitter: @Redo_Downloads
Encoded date : UTC 2018-03-10 22:48:32
Writing application : mkvmerge v8.3.0 (‘Over the Horizon’) 64bit
Writing library : libebml v1.3.1 + libmatroska v1.4.2
Attachments : redondito.net.htm / Redondito_.png

Video
ID : 1
Format : AVC
Format/Info : Advanced Video Codec
Format profile : High@L4
Format settings : CABAC / 5 Ref Frames
Format settings, CABAC : Yes
Format settings, ReFrames : 5 frames
Codec ID : V_MPEG4/ISO/AVC
Duration : 1 h 55 min
Bit rate : 4 593 kb/s
Width : 1 920 pixels
Height : 802 pixels
Display aspect ratio : 2.40:1
Frame rate mode : Constant
Frame rate : 23.976 (24000/1001) FPS
Color space : YUV
Chroma subsampling : 4:2:0
Bit depth : 8 bits
Scan type : Progressive
Bits/(Pixel*Frame) : 0.124
Stream size : 3.70 GiB (88%)
Title : Three Billboards Outside Ebbing, Missouri (2017) 1080p WEB-DL Dual
Language : English
Default : Yes
Forced : No
Color range : Limited
Color primaries : BT.709
Transfer characteristics : BT.709
Matrix coefficients : BT.709

Audio #1
ID : 2
Format : AC-3
Format/Info : Audio Coding 3
Codec ID : A_AC3
Duration : 1 h 55 min
Bit rate mode : Constant
Bit rate : 256 kb/s
Channel(s) : 2 channels
Channel positions : Front: L R
Sampling rate : 48.0 kHz
Frame rate : 31.250 FPS (1536 SPF)
Bit depth : 16 bits
Compression mode : Lossy
Delay relative to video : -43 ms
Stream size : 211 MiB (5%)
Title : Latino
Language : Spanish
Service kind : Complete Main
Default : Yes
Forced : No

Audio #2
ID : 4
Format : AC-3
Format/Info : Audio Coding 3
Codec ID : A_AC3
Duration : 1 h 55 min
Bit rate mode : Constant
Bit rate : 384 kb/s
Channel(s) : 6 channels
Channel positions : Front: L C R, Side: L R, LFE
Sampling rate : 48.0 kHz
Frame rate : 31.250 FPS (1536 SPF)
Bit depth : 16 bits
Compression mode : Lossy
Delay relative to video : -43 ms
Stream size : 317 MiB (7%)
Title : Inglés
Language : English
Service kind : Complete Main
Default : No
Forced : No

Text #1
ID : 3
Format : ASS
Codec ID : S_TEXT/ASS
Codec ID/Info : Advanced Sub Station Alpha
Duration : 51 min 10 s
Bit rate : 0 b/s
Count of elements : 5
Compression mode : Lossless
Stream size : 349 Bytes (0%)
Title : Forzados
Language : Spanish
Default : Yes
Forced : Yes

Text #2
ID : 5
Format : ASS
Codec ID : S_TEXT/ASS
Codec ID/Info : Advanced Sub Station Alpha
Duration : 1 h 54 min
Bit rate : 82 b/s
Count of elements : 1156
Compression mode : Lossless
Stream size : 68.8 KiB (0%)
Title : Español
Language : Spanish
Default : No
Forced : No

[collapse]
LINK DE DESCARGA

Archivos con 5% de recuperación

loading...

DESCARGA DESDE TODOS LOS SERVIDORES A VELOCIDAD PREMIUM!