The Walking Dead S09E06 [LATINO] [ACTUALIZACION SEMANAL] [MKV] [1080p] [GD-ZP-OP+]

Posted on Posted in Series

 

The Walking Dead S09 [LATINO] [ACTUALIZACION SEMANAL]
The Walking Dead S09 [LATINO] [ACTUALIZACION SEMANAL]
The Walking Dead cuenta la historia de las secuelas de un apocalípsis zombie, siguiendo a un pequeño grupo de supervivientes que viajan a través de Estados Unidos en busca de un nuevo hogar, lejos de las hordas de zombies. Tras despertar de un coma en un hospital abandonado, el oficial de policía Rick Grimes se da cuenta de que el mundo que conocía no existe, está ahora devastado por una epidemia zombie de proporciones apocalípticas. A las afueras de Atlanta, un pequeño campamento lucha por sobrevivir mientras los muertos-vivientes los acechan a cada momento. Dicho grupo, guiado por Shane Walsh (interpretado por Jon Bernthal) cambia su liderazgo cuando el ya dado por muerto Rick Grimes aparece de la nada. Mientras su situación se vuelve más y más sombría, la desesperación del grupo por sobrevivir les obliga a hacer cosas que en su vida anterior a la plaga zombie no se habrían imaginado hacer jamás.

Datos Técnicos:

Clic Para Expandir

General
Unique ID : 30502679125345547361989908819151077518 (0x16F29A311053C7C13E35C9BC426AC08E)
Complete name : The.Walking.Dead.S09E01.A.New.Beginning.1080p.AMZN.WEBRip.Lat.mkv
Format : Matroska
Format version : Version 4 / Version 2
File size : 5.99 GiB
Duration : 58 min 34 s
Overall bit rate : 14.6 Mb/s
Movie name : www.redondito.net
Encoded date : UTC 2018-10-09 04:19:46
Writing application : mkvmerge v26.0.0 (‘In The Game’) 64-bit
Writing library : libebml v1.3.6 + libmatroska v1.4.9

Video
ID : 1
Format : AVC
Format/Info : Advanced Video Codec
Format profile : High@L4
Format settings, CABAC : Yes
Format settings, ReFrames : 4 frames
Codec ID : V_MPEG4/ISO/AVC
Duration : 58 min 34 s
Bit rate : 13.7 Mb/s
Width : 1 920 pixels
Height : 1 080 pixels
Display aspect ratio : 16:9
Frame rate mode : Constant
Frame rate : 23.976 (24000/1001) FPS
Color space : YUV
Chroma subsampling : 4:2:0
Bit depth : 8 bits
Scan type : Progressive
Bits/(Pixel*Frame) : 0.276
Stream size : 5.62 GiB (94%)
Default : Yes
Forced : No
Color range : Limited
Color primaries : BT.709
Transfer characteristics : BT.709
Matrix coefficients : BT.709

Audio #1
ID : 2
Format : AC-3
Format/Info : Audio Coding 3
Mode extension : CM (complete main)
Format settings, Endianness : Big
Codec ID : A_AC3
Duration : 58 min 34 s
Bit rate mode : Constant
Bit rate : 256 kb/s
Channel(s) : 2 channels
Channel positions : Front: L R
Sampling rate : 48.0 kHz
Frame rate : 31.250 FPS (1536 spf)
Bit depth : 16 bits
Compression mode : Lossy
Stream size : 107 MiB (2%)
Title : LATINO
Language : Spanish
Default : Yes
Forced : No

Audio #2
ID : 3
Format : E-AC-3
Format/Info : Enhanced Audio Coding 3
Format settings, Endianness : Big
Codec ID : A_EAC3
Duration : 58 min 34 s
Bit rate mode : Constant
Bit rate : 640 kb/s
Channel(s) : 6 channels
Channel positions : Front: L C R, Side: L R, LFE
Sampling rate : 48.0 kHz
Frame rate : 187.500 FPS (256 spf)
Compression mode : Lossy
Stream size : 268 MiB (4%)
Title : INGLES
Language : English
Default : No
Forced : No

Text #1
ID : 4
Format : UTF-8
Codec ID : S_TEXT/UTF8
Codec ID/Info : UTF-8 Plain Text
Duration : 58 min 22 s
Bit rate : 45 b/s
Count of elements : 803
Stream size : 19.3 KiB (0%)
Title : INGLES
Language : English
Default : No
Forced : No

Text #2
ID : 5
Format : UTF-8
Codec ID : S_TEXT/UTF8
Codec ID/Info : UTF-8 Plain Text
Duration : 58 min 23 s
Bit rate : 54 b/s
Count of elements : 1048
Stream size : 23.4 KiB (0%)
Title : SDH
Language : English
Default : No
Forced : No

Text #3
ID : 6
Format : UTF-8
Codec ID : S_TEXT/UTF8
Codec ID/Info : UTF-8 Plain Text
Duration : 57 min 18 s
Bit rate : 41 b/s
Count of elements : 599
Stream size : 17.3 KiB (0%)
Title : ESPAÑOL
Language : Spanish
Default : No
Forced : No

Text #4
ID : 7
Format : UTF-8
Codec ID : S_TEXT/UTF8
Codec ID/Info : UTF-8 Plain Text
Duration : 30 min 1 s
Bit rate : 1 b/s
Count of elements : 12
Stream size : 278 Bytes (0%)
Title : FORZADO
Language : Spanish
Default : Yes
Forced : Yes

[collapse]
LINK DE DESCARGA

Archivos con 5% de recuperación

loading...

DESCARGA DESDE TODOS LOS SERVIDORES A VELOCIDAD PREMIUM!

Dejá un comentario

Tu dirección de correo electrónico no será publicada. Los campos necesarios están marcados *