The Walking Dead S08E16 (Actualización Semanal) [1080p] [MKV] [4Gb] [MEGA-UL-UPTO+]

Posted on Posted in Series

En la última temporada, Rick Grimes y su grupo de supervivientes se enfrentaron a su reto más letal hasta la fecha. Con la comodidad de Alejandría, bajaron su guardia solo para que se les recuerde lo violento que puede ser el mundo en el que viven. Sintiéndose sin poder bajo las reglas y mandatos de Negan, Rick propuso al grupo seguirle la corriente. Pero al ver que Negan no es una persona con la que razonar, Rick comenzó a unificar a otras comunidades afectadas por Los Salvadores y con el apoyo de Hilltop y El Reino, finalmente tienen suficiente poder para reaccionar frente a Los Salvadores. Esta temporada, Rick traerá la guerra sin cuartel a Negan y sus fuerzas. Los Salvadores son más, están mejor equipados y son despiadados, pero Rick y las comunidades unidas están luchando por la promesa de un futuro mejor. Las líneas de batalla están dibujadas a medida que avanzaron a una cinética ofensiva llena de acción. Hasta ahora, sobrevivir ha sido el objetivo de Rick y su grupo, pero no es suficiente. Tienen que pelear para recuperar su libertad y así vivir y poderla reconstruir. Como en cualquier batalla, habrá pérdidas. Bajas. pero con Rick liderando las fuerzas de Alejandría, Maggie liderando Hilltop y el rey Ezekiel liderando El Reino, el poder de Negan y Los Salvadores en este mundo podría llegar a su final

Datos Técnicos:

Clic Para Expandir

General
Unique ID : 226313188160784588068962563108583404743 (0xAA4255A79D9267FCBEF4916EFF1274C7)
Complete name : F:\Juan Doe\Redondito_\Subidas\The.Walking.Dead.S08E01.1080p.SUBT.mkv
Format : Matroska
Format version : Version 4 / Version 2
File size : 4.85 GiB
Duration : 47 min 14 s
Overall bit rate mode : Variable
Overall bit rate : 14.7 Mb/s
Movie name : Twitter: @Redo_downloads
Encoded date : UTC 2017-10-23 20:22:22
Writing application : mkvmerge v8.3.0 (‘Over the Horizon’) 64bit
Writing library : libebml v1.3.1 + libmatroska v1.4.2
Attachments : redondito.net.htm / Redondito_.png

Video
ID : 1
Format : AVC
Format/Info : Advanced Video Codec
Format profile : High@L4
Format settings, CABAC : Yes
Format settings, RefFrames : 4 frames
Codec ID : V_MPEG4/ISO/AVC
Duration : 47 min 14 s
Bit rate mode : Variable
Bit rate : 14.1 Mb/s
Maximum bit rate : 15.0 Mb/s
Width : 1 920 pixels
Height : 1 080 pixels
Display aspect ratio : 16:9
Frame rate mode : Constant
Frame rate : 23.976 (24000/1001) FPS
Color space : YUV
Chroma subsampling : 4:2:0
Bit depth : 8 bits
Scan type : Progressive
Bits/(Pixel*Frame) : 0.283
Stream size : 4.64 GiB (96%)
Default : Yes
Forced : No
Color range : Limited
Color primaries : BT.709
Transfer characteristics : BT.709
Matrix coefficients : BT.709

Audio
ID : 2
Format : E-AC-3
Format/Info : Enhanced Audio Coding 3
Format settings, Endianness : Big
Codec ID : A_EAC3
Duration : 47 min 14 s
Bit rate mode : Constant
Bit rate : 640 kb/s
Channel(s) : 6 channels
Channel positions : Front: L C R, Side: L R, LFE
Sampling rate : 48.0 kHz
Frame rate : 187.500 FPS (256 SPF)
Compression mode : Lossy
Stream size : 216 MiB (4%)
Language : English
Service kind : Complete Main
Default : Yes
Forced : No

Text
ID : 3
Format : ASS
Codec ID : S_TEXT/ASS
Codec ID/Info : Advanced Sub Station Alpha
Duration : 45 min 36 s
Bit rate : 49 b/s
Count of elements : 361
Compression mode : Lossless
Stream size : 16.6 KiB (0%)
Language : Spanish
Default : Yes
Forced : No

[collapse]
The Walking Dead en TMDB


EPISODIO 01EPISODIO 02EPISODIO 03EPISODIO 04EPISODIO 05EPISODIO 06EPISODIO 07EPISODIO 08EPISODIO 09EPISODIO 10EPISODIO 11EPISODIO 12EPISODIO 13EPISODIO 14EPISODIO 15EPISODIO 16


EPISODIO 01

Archivos con 5% de recuperación

loading...