Star Wars: Ep VIII – The Last Jedi [DUAL LAT] [MKV] [1920x808p] [11Gb] [GOOGLE DRIVE-MEGA-UPTO+]

Posted on Posted in Peliculas
Star Wars: Ep VIII – The Last Jedi
Star Wars: Ep VIII - The Last Jedi

La fuerza siente un cambio y los Maestros Jedi saben que es el momento de regresar. La galaxia se encuentra perdida y separada, y deberán unir fuerzas si no quieren que sea el fin de la paz. Con el rumor de una guerra, los pocos aliados que quedan emprenderán la búsqueda para aumentar sus aliados, mientras se enfrentan a la desconfianza y el temor de aquellos que no olvidan ni perdonan. Mundos casi olvidados, personajes misteriosos y viejas caras conocidas, una nueva aventura está a punto de comenzar para mantener la frágil supervivencia de La República, mientras se preparan para lo que está por llegar.

Datos Técnicos:

Clic Para Expandir

General
Unique ID : 214879671634806867123539364708749050803 (0xA1A851C47888FD72A18C757DE84A83B3)
Complete name : M:\Redondito_\Subidas\Star.Wars.The.Last.Jedi.Lat.mkv
Format : Matroska
Format version : Version 4 / Version 2
File size : 11.6 GiB
Duration : 2 h 31 min
Overall bit rate : 10.9 Mb/s
Movie name : Twitter: @Redo_Downloads
Encoded date : UTC 2018-03-11 03:44:13
Writing application : mkvmerge v8.3.0 (‘Over the Horizon’) 64bit
Writing library : libebml v1.3.1 + libmatroska v1.4.2
Cover : Yes
Attachments : redondito.net.htm / Redondito_.png / COVER.CHILEBT.jpg

Video
ID : 1
Format : AVC
Format/Info : Advanced Video Codec
Format profile : High@L4.1
Format settings : CABAC / 5 Ref Frames
Format settings, CABAC : Yes
Format settings, ReFrames : 5 frames
Codec ID : V_MPEG4/ISO/AVC
Duration : 2 h 31 min
Bit rate : 8 797 kb/s
Width : 1 920 pixels
Height : 808 pixels
Display aspect ratio : 2.40:1
Frame rate mode : Constant
Frame rate : 23.976 FPS
Color space : YUV
Chroma subsampling : 4:2:0
Bit depth : 8 bits
Scan type : Progressive
Bits/(Pixel*Frame) : 0.237
Stream size : 9.33 GiB (80%)
Title : Star.Wars.The.Last.Jedi.2017 – CHILEBT.COM
Writing library : x264 core 155 r2901 7d0ff22
Encoding settings : cabac=1 / ref=5 / deblock=1:0:0 / analyse=0x3:0x133 / me=umh / subme=7 / psy=1 / psy_rd=1.00:0.00 / mixed_ref=1 / me_range=16 / chroma_me=1 / trellis=1 / 8x8dct=1 / cqm=0 / deadzone=21,11 / fast_pskip=0 / chroma_qp_offset=-2 / threads=25 / lookahead_threads=4 / sliced_threads=0 / nr=0 / decimate=1 / interlaced=0 / bluray_compat=0 / constrained_intra=0 / bframes=3 / b_pyramid=2 / b_adapt=1 / b_bias=0 / direct=1 / weightb=1 / open_gop=0 / weightp=2 / keyint=250 / keyint_min=23 / scenecut=40 / intra_refresh=0 / rc_lookahead=40 / rc=2pass / mbtree=1 / bitrate=8797 / ratetol=1.0 / qcomp=0.60 / qpmin=0 / qpmax=69 / qpstep=4 / cplxblur=20.0 / qblur=0.5 / ip_ratio=1.40 / aq=1:1.00
Language : English
Default : Yes
Forced : No

Audio #1
ID : 2
Format : AC-3
Format/Info : Audio Coding 3
Codec ID : A_AC3
Duration : 2 h 31 min
Bit rate mode : Constant
Bit rate : 640 kb/s
Channel(s) : 6 channels
Channel positions : Front: L C R, Side: L R, LFE
Sampling rate : 48.0 kHz
Frame rate : 31.250 FPS (1536 SPF)
Bit depth : 16 bits
Compression mode : Lossy
Stream size : 695 MiB (6%)
Title : LATINO
Language : Spanish
Service kind : Complete Main
Default : Yes
Forced : No

Audio #2
ID : 4
Format : DTS
Format/Info : Digital Theater Systems
Codec ID : A_DTS
Duration : 2 h 31 min
Bit rate mode : Constant
Bit rate : 1 509 kb/s
Channel(s) : 6 channels
Channel positions : Front: L C R, Side: L R, LFE
Sampling rate : 48.0 kHz
Frame rate : 93.750 FPS (512 SPF)
Bit depth : 24 bits
Compression mode : Lossy
Stream size : 1.60 GiB (14%)
Title : INGLES
Language : English
Default : No
Forced : No

Text #1
ID : 3
Format : ASS
Codec ID : S_TEXT/ASS
Codec ID/Info : Advanced Sub Station Alpha
Duration : 5 s 0 ms
Bit rate : 230 b/s
Count of elements : 1
Compression mode : Lossless
Stream size : 144 Bytes (0%)
Title : FORZADOS
Language : Latin
Default : Yes
Forced : Yes

Text #2
ID : 5
Format : ASS
Codec ID : S_TEXT/ASS
Codec ID/Info : Advanced Sub Station Alpha
Duration : 2 h 24 min
Bit rate : 78 b/s
Count of elements : 1620
Compression mode : Lossless
Stream size : 82.7 KiB (0%)
Language : Spanish
Default : No
Forced : No

[collapse]
LINK DE DESCARGA

Archivos con 5% de recuperación

loading...

Dejá un comentario

Tu dirección de correo electrónico no será publicada. Los campos necesarios están marcados *