Pitch perfect 3 [DUAL LAT] [1080p] [MKV] [3.8Gb] [GOOGLE DRIVE-MEGA-UPTO+]

Posted on Posted in Peliculas
Pitch perfect 3
Pitch perfect 3

En Pitch Perfect 3, Tras ganar el campeonato del mundo, las Bellas se separan y descubren que es difícil encontrar trabajo en el mundo de la música. Pero cuando tienen la oportunidad de reunirse para un tour en el extranjero, el grupo volverá a hacer música y a tomar algunas decisiones dudosas.

Datos Técnicos:

Clic Para Expandir

General
Unique ID : 194379931382129945266653723024087444191 (0x923C368A07CDBC489F2CF72C43C1EADF)
Complete name : M:\Redondito_\Subidas\Pitch.Perfect.3.Lat.mkv
Format : Matroska
Format version : Version 4 / Version 2
File size : 3.84 GiB
Duration : 1 h 33 min
Overall bit rate : 5 902 kb/s
Movie name : Twitter: @Redo_Downloads
Encoded date : UTC 2018-03-10 23:02:54
Writing application : mkvmerge v8.3.0 (‘Over the Horizon’) 64bit
Writing library : libebml v1.3.1 + libmatroska v1.4.2
Attachments : redondito.net.htm / Redondito_.png

Video
ID : 1
Format : AVC
Format/Info : Advanced Video Codec
Format profile : High@L4
Format settings : CABAC / 4 Ref Frames
Format settings, CABAC : Yes
Format settings, ReFrames : 4 frames
Codec ID : V_MPEG4/ISO/AVC
Duration : 1 h 33 min
Bit rate : 5 132 kb/s
Width : 1 916 pixels
Height : 1 032 pixels
Display aspect ratio : 1.85:1
Frame rate mode : Constant
Frame rate : 23.976 (23976/1000) FPS
Color space : YUV
Chroma subsampling : 4:2:0
Bit depth : 8 bits
Scan type : Progressive
Bits/(Pixel*Frame) : 0.108
Stream size : 3.34 GiB (87%)
Language : English
Default : Yes
Forced : No
Color range : Limited
Color primaries : BT.709
Transfer characteristics : BT.709
Matrix coefficients : BT.709

Audio #1
ID : 2
Format : AC-3
Format/Info : Audio Coding 3
Codec ID : A_AC3
Duration : 1 h 33 min
Bit rate mode : Constant
Bit rate : 384 kb/s
Channel(s) : 6 channels
Channel positions : Front: L C R, Side: L R, LFE
Sampling rate : 48.0 kHz
Frame rate : 31.250 FPS (1536 SPF)
Bit depth : 16 bits
Compression mode : Lossy
Stream size : 256 MiB (7%)
Title : Latino
Language : Spanish
Service kind : Complete Main
Default : Yes
Forced : No

Audio #2
ID : 4
Format : AC-3
Format/Info : Audio Coding 3
Codec ID : A_AC3
Duration : 1 h 33 min
Bit rate mode : Constant
Bit rate : 384 kb/s
Channel(s) : 6 channels
Channel positions : Front: L C R, Side: L R, LFE
Sampling rate : 48.0 kHz
Frame rate : 31.250 FPS (1536 SPF)
Bit depth : 16 bits
Compression mode : Lossy
Stream size : 256 MiB (7%)
Title : Ingles
Language : English
Service kind : Complete Main
Default : No
Forced : No

Text #1
ID : 3
Format : ASS
Codec ID : S_TEXT/ASS
Codec ID/Info : Advanced Sub Station Alpha
Duration : 1 h 27 min
Bit rate : 31 b/s
Count of elements : 335
Compression mode : Lossless
Stream size : 20.3 KiB (0%)
Title : Forzados
Language : Spanish
Default : Yes
Forced : Yes

Text #2
ID : 5
Format : ASS
Codec ID : S_TEXT/ASS
Codec ID/Info : Advanced Sub Station Alpha
Duration : 1 h 27 min
Bit rate : 141 b/s
Count of elements : 1658
Compression mode : Lossless
Stream size : 90.2 KiB (0%)
Title : Español
Language : Spanish
Default : No
Forced : No

[collapse]
LINK DE DESCARGA

Archivos con 5% de recuperación

loading...

Dejá un comentario

Tu dirección de correo electrónico no será publicada. Los campos necesarios están marcados *