Mission Impossible – Fallout [LATINO] [MKV] [1080p] [GD-ZP-OP+]

Posted on Posted in Peliculas
Mission Impossible – Fallout [LATINO]
Mission Impossible - Fallout [LATINO]

En ocasiones, hasta las mejores intenciones pueden volverse contra nosotros. En “MISIÓN: IMPOSIBLE – FALLOUT” nos encontramos a Ethan Hunt (Tom Cruise) y su equipo en el FMI (Alec Baldwin, Simon Pegg, Ving Rhames), junto con algunos aliados conocidos (Rebecca Ferguson, Michelle Monaghan) en una carrera contrarreloj después de una misión fallida. Henry Cavill, Angela Bassett y Vanessa Kirby también se unen al dinámico reparto, mientras que el director Christopher McQuarrie vuelve a ponerse al timón.

Datos Técnicos:

Clic Para Expandir

General
Unique ID : 179289899305701697974801456772191666684 (0x86E1FA843664FB54B3A8034D2668C1FC)
Complete name : Mission.Impossible.Fallout.2018.1080p.WEB-DL.Lat.mkv
Format : Matroska
Format version : Version 4 / Version 2
File size : 5.95 GiB
Duration : 2 h 27 min
Overall bit rate : 5 765 kb/s
Movie name : www.redondito.net
Encoded date : UTC 2018-11-06 19:37:06
Writing application : mkvmerge v7.2.0 (‘On Every Street’) 64bit built on Sep 13 2014 15:52:10
Writing library : libebml v1.3.0 + libmatroska v1.4.1

Video
ID : 1
Format : AVC
Format/Info : Advanced Video Codec
Format profile : High@L4
Format settings, CABAC : Yes
Format settings, ReFrames : 4 frames
Codec ID : V_MPEG4/ISO/AVC
Duration : 2 h 27 min
Bit rate : 5 124 kb/s
Width : 1 920 pixels
Height : 1 012 pixels
Display aspect ratio : 1.897
Frame rate mode : Constant
Frame rate : 23.976 (24000/1001) FPS
Color space : YUV
Chroma subsampling : 4:2:0
Bit depth : 8 bits
Scan type : Progressive
Bits/(Pixel*Frame) : 0.110
Stream size : 5.29 GiB (89%)
Language : English
Default : Yes
Forced : No
Color range : Limited
Color primaries : BT.709
Transfer characteristics : BT.709
Matrix coefficients : BT.709

Audio #1
ID : 2
Format : AC-3
Format/Info : Audio Coding 3
Mode extension : CM (complete main)
Format settings, Endianness : Big
Codec ID : A_AC3
Duration : 2 h 27 min
Bit rate mode : Constant
Bit rate : 256 kb/s
Channel(s) : 2 channels
Channel positions : Front: L R
Sampling rate : 48.0 kHz
Frame rate : 31.250 FPS (1536 spf)
Bit depth : 16 bits
Compression mode : Lossy
Delay relative to video : -43 ms
Stream size : 270 MiB (4%)
Title : latino
Language : Spanish
Default : Yes
Forced : No

Audio #2
ID : 3
Format : AC-3
Format/Info : Audio Coding 3
Mode extension : CM (complete main)
Format settings, Endianness : Big
Codec ID : A_AC3
Duration : 2 h 27 min
Bit rate mode : Constant
Bit rate : 384 kb/s
Channel(s) : 6 channels
Channel positions : Front: L C R, Side: L R, LFE
Sampling rate : 48.0 kHz
Frame rate : 31.250 FPS (1536 spf)
Bit depth : 16 bits
Compression mode : Lossy
Delay relative to video : -43 ms
Stream size : 405 MiB (7%)
Language : English
Default : No
Forced : No

Text #1
ID : 4
Format : UTF-8
Codec ID : S_TEXT/UTF8
Codec ID/Info : UTF-8 Plain Text
Duration : 2 h 1 min
Bit rate : 0 b/s
Count of elements : 34
Stream size : 747 Bytes (0%)
Title : forzados
Language : Spanish
Default : Yes
Forced : No

Text #2
ID : 5
Format : UTF-8
Codec ID : S_TEXT/UTF8
Codec ID/Info : UTF-8 Plain Text
Duration : 2 h 19 min
Bit rate : 46 b/s
Count of elements : 1365
Stream size : 47.5 KiB (0%)
Language : Spanish
Default : No
Forced : No

RAR LIST:
1 496M M15510N.1M905518L3.F4LL0U7.2018.10809.W38-DL.L4701.rev
2 496M M15510N.1M905518L3.F4LL0U7.2018.10809.W38-DL.L47.r00
3 496M M15510N.1M905518L3.F4LL0U7.2018.10809.W38-DL.L47.r01
4 496M M15510N.1M905518L3.F4LL0U7.2018.10809.W38-DL.L47.r02
5 496M M15510N.1M905518L3.F4LL0U7.2018.10809.W38-DL.L47.r03
6 496M M15510N.1M905518L3.F4LL0U7.2018.10809.W38-DL.L47.r04
7 496M M15510N.1M905518L3.F4LL0U7.2018.10809.W38-DL.L47.r05
8 496M M15510N.1M905518L3.F4LL0U7.2018.10809.W38-DL.L47.r06
9 496M M15510N.1M905518L3.F4LL0U7.2018.10809.W38-DL.L47.r07
10 496M M15510N.1M905518L3.F4LL0U7.2018.10809.W38-DL.L47.r08
11 496M M15510N.1M905518L3.F4LL0U7.2018.10809.W38-DL.L47.r09
12 496M M15510N.1M905518L3.F4LL0U7.2018.10809.W38-DL.L47.r10
13 163M M15510N.1M905518L3.F4LL0U7.2018.10809.W38-DL.L47.r11
14 496M M15510N.1M905518L3.F4LL0U7.2018.10809.W38-DL.L47.rar
15 4.0K M15510N.1M905518L3.F4LL0U7.2018.10809.W38-DL.L47.sfv
16 6.5G total

[collapse]
LINK DE DESCARGA

Archivos con 5% de recuperación

loading...

DESCARGA DESDE TODOS LOS SERVIDORES A VELOCIDAD PREMIUM!

Dejá un comentario

Tu dirección de correo electrónico no será publicada. Los campos necesarios están marcados *