Marvel’s The Punisher (S01 COMPLETA) [DUAL LATINO] [MKV] [1080p] [1-2Gb] [MEGA-UL-UPTO+]

Posted on Posted in Series

Frank Castle, conocido por las calles de Nueva York como ‘el Castigador’, busca venganza contra los responsables de la muerte de su familia y, por el camino, destapa una conspiración que va mucho más allá de su vendetta personal. Spin-off de la serie “Daredevil”.

Datos Técnicos:

Clic Para Expandir

General
Unique ID : 194419123294005380426761500042701703450 (0x9243C2D980F5FB72AC517E8D6C96091A)
Complete name : D:\Redondito_\Redondito_\Subidas\punisher S01\Punisher.S01E01.mkv
Format : Matroska
Format version : Version 4 / Version 2
File size : 1.43 GiB
Duration : 51 min 23 s
Overall bit rate mode : Variable
Overall bit rate : 3 993 kb/s
Encoded date : UTC 2017-11-19 15:36:40
Writing application : mkvmerge v8.3.0 (‘Over the Horizon’) 64bit
Writing library : libebml v1.3.1 + libmatroska v1.4.2

Video
ID : 1
Format : AVC
Format/Info : Advanced Video Codec
Format profile : Main@L4
Format settings : CABAC / 3 Ref Frames
Format settings, CABAC : Yes
Format settings, ReFrames : 3 frames
Codec ID : V_MPEG4/ISO/AVC
Duration : 51 min 23 s
Bit rate mode : Variable
Bit rate : 3 320 kb/s
Maximum bit rate : 4 980 kb/s
Width : 1 920 pixels
Height : 1 080 pixels
Display aspect ratio : 16:9
Frame rate mode : Constant
Frame rate : 23.976 (24000/1001) FPS
Color space : YUV
Chroma subsampling : 4:2:0
Bit depth : 8 bits
Scan type : Progressive
Bits/(Pixel*Frame) : 0.067
Stream size : 1.16 GiB (81%)
Writing library : x264 core 118
Encoding settings : cabac=1 / ref=3 / deblock=1:0:0 / analyse=0x1:0x111 / me=umh / subme=10 / psy=1 / psy_rd=1.00:0.00 / mixed_ref=1 / me_range=24 / chroma_me=1 / trellis=2 / 8x8dct=0 / cqm=0 / deadzone=21,11 / fast_pskip=1 / chroma_qp_offset=-2 / threads=8 / sliced_threads=0 / nr=0 / decimate=1 / interlaced=0 / bluray_compat=0 / constrained_intra=0 / bframes=2 / b_pyramid=0 / b_adapt=2 / b_bias=0 / direct=3 / weightb=1 / open_gop=0 / weightp=2 / keyint=48 / keyint_min=25 / scenecut=0 / intra_refresh=0 / rc_lookahead=0 / rc=2pass / mbtree=1 / bitrate=3320 / ratetol=1.0 / qcomp=0.50 / qpmin=6 / qpmax=51 / qpstep=4 / cplxblur=20.0 / qblur=0.5 / vbv_maxrate=4980 / vbv_bufsize=6640 / nal_hrd=vbr / ip_ratio=1.40 / aq=1:1.00
Default : Yes
Forced : No

Audio #1
ID : 2
Format : AC-3
Format/Info : Audio Coding 3
Codec ID : A_AC3
Duration : 51 min 23 s
Bit rate mode : Constant
Bit rate : 384 kb/s
Channel(s) : 6 channels
Channel positions : Front: L C R, Side: L R, LFE
Sampling rate : 48.0 kHz
Frame rate : 31.250 FPS (1536 SPF)
Bit depth : 16 bits
Compression mode : Lossy
Stream size : 141 MiB (10%)
Title : Latino
Language : Spanish
Service kind : Complete Main
Default : Yes
Forced : No

Audio #2
ID : 3
Format : AC-3
Format/Info : Audio Coding 3
Codec ID : A_AC3
Duration : 51 min 23 s
Bit rate mode : Constant
Bit rate : 384 kb/s
Channel(s) : 6 channels
Channel positions : Front: L C R, Side: L R, LFE
Sampling rate : 48.0 kHz
Frame rate : 31.250 FPS (1536 SPF)
Bit depth : 16 bits
Compression mode : Lossy
Stream size : 141 MiB (10%)
Language : English
Service kind : Complete Main
Default : No
Forced : No

Text #1
ID : 4
Format : ASS
Codec ID : S_TEXT/ASS
Codec ID/Info : Advanced Sub Station Alpha
Duration : 50 min 10 s
Bit rate : 84 b/s
Count of elements : 583
Compression mode : Lossless
Stream size : 31.1 KiB (0%)
Language : Latin
Default : Yes
Forced : Yes

Text #2
ID : 5
Format : ASS
Codec ID : S_TEXT/ASS
Codec ID/Info : Advanced Sub Station Alpha
Duration : 20 s 0 ms
Bit rate : 64 b/s
Count of elements : 1
Compression mode : Lossless
Stream size : 162 Bytes (0%)
Language : Spanish
Default : No
Forced : No

[collapse]
Marvel’s The Punisher en TMDB


EPISODIO 01EPISODIO 02EPISODIO 03EPISODIO 04EPISODIO 05EPISODIO 06EPISODIO 07EPISODIO 08EPISODIO 09EPISODIO 10EPISODIO 11EPISODIO 12EPISODIO 13

Archivos con 5% de recuperación

loading...

DESCARGA DESDE TODOS LOS SERVIDORES A VELOCIDAD PREMIUM!