Los Increibles 2 [LATINO] [1080p] [MKV] [WEB-DL] [GD-ZP-OP+]

Posted on Posted in Peliculas
Los Increibles 2 [LATINO] [1080p]
Los Increibles 2 [LATINO] [1080p]

Helen tiene que liderar una campaña para que los superhéroes regresen, mientras Bob vive su vida “normal” con Violet, Dash y el bebé Jack-Jack. Su misión se va a pique cuando aparece un nuevo villano con un brillante plan que lo amenaza todo. Pero los Parr no se amedrentarán y menos teniendo a Frozono de su parte.

Datos Técnicos:

Clic Para Expandir

General
Unique ID : 248778365557098359534446706410772680827 (0xBB28F86A71C5A9BD662C42B52BF6D07B)
Complete name : Incredibles.2.2018.1080p.WEB-DL.Lat.mkv
Format : Matroska
Format version : Version 4 / Version 2
File size : 4.23 GiB
Duration : 1 h 57 min
Overall bit rate : 5 145 kb/s
Movie name : www.redondito.net
Encoded date : UTC 2018-10-23 22:01:09
Writing application : mkvmerge v25.0.0 (‘Prog Noir’) 64-bit
Writing library : libebml v1.3.6 + libmatroska v1.4.9

Video
ID : 1
Format : AVC
Format/Info : Advanced Video Codec
Format profile : High@L4
Format settings, CABAC : Yes
Format settings, ReFrames : 5 frames
Codec ID : V_MPEG4/ISO/AVC
Duration : 1 h 57 min
Bit rate : 4 503 kb/s
Width : 1 920 pixels
Height : 804 pixels
Display aspect ratio : 2.40:1
Frame rate mode : Constant
Frame rate : 23.976 (23976/1000) FPS
Color space : YUV
Chroma subsampling : 4:2:0
Bit depth : 8 bits
Scan type : Progressive
Bits/(Pixel*Frame) : 0.122
Stream size : 3.71 GiB (88%)
Title : English
Language : English
Default : Yes
Forced : No
Color range : Limited
Color primaries : BT.709
Transfer characteristics : BT.709
Matrix coefficients : BT.709

Audio #1
ID : 2
Format : AC-3
Format/Info : Audio Coding 3
Mode extension : CM (complete main)
Format settings, Endianness : Big
Codec ID : A_AC3
Duration : 1 h 57 min
Bit rate mode : Constant
Bit rate : 384 kb/s
Channel(s) : 6 channels
Channel positions : Front: L C R, Side: L R, LFE
Sampling rate : 48.0 kHz
Frame rate : 31.250 FPS (1536 spf)
Bit depth : 16 bits
Compression mode : Lossy
Delay relative to video : -42 ms
Stream size : 324 MiB (7%)
Title : English
Language : English
Default : No
Forced : No

Audio #2
ID : 3
Format : AC-3
Format/Info : Audio Coding 3
Mode extension : CM (complete main)
Format settings, Endianness : Big
Codec ID : A_AC3
Duration : 1 h 57 min
Bit rate mode : Constant
Bit rate : 256 kb/s
Channel(s) : 2 channels
Channel positions : Front: L R
Sampling rate : 48.0 kHz
Frame rate : 31.250 FPS (1536 spf)
Bit depth : 16 bits
Compression mode : Lossy
Delay relative to video : -42 ms
Stream size : 216 MiB (5%)
Title : Latino
Default : Yes
Forced : No

RAR LIST:
1 496M 1NCR3D18L35.2.2018.10809.W38-DL.L471.rev
2 496M 1NCR3D18L35.2.2018.10809.W38-DL.L47.r00
3 496M 1NCR3D18L35.2.2018.10809.W38-DL.L47.r01
4 496M 1NCR3D18L35.2.2018.10809.W38-DL.L47.r02
5 496M 1NCR3D18L35.2.2018.10809.W38-DL.L47.r03
6 496M 1NCR3D18L35.2.2018.10809.W38-DL.L47.r04
7 496M 1NCR3D18L35.2.2018.10809.W38-DL.L47.r05
8 496M 1NCR3D18L35.2.2018.10809.W38-DL.L47.r06
9 386M 1NCR3D18L35.2.2018.10809.W38-DL.L47.r07
10 496M 1NCR3D18L35.2.2018.10809.W38-DL.L47.rar
11 4.0K 1NCR3D18L35.2.2018.10809.W38-DL.L47.sfv
12 4.8G total

[collapse]
LINK DE DESCARGA

Archivos con 5% de recuperación

loading...

DESCARGA DESDE TODOS LOS SERVIDORES A VELOCIDAD PREMIUM!

Dejá un comentario

Tu dirección de correo electrónico no será publicada. Los campos necesarios están marcados *