LEGO DC Super Heroes: The Flash [DUAL LAT] [MKV] [1080p] [2.8Gb] [GOOGLE DRIVE-MEGA-UPTO+]

Posted on Posted in Peliculas
LEGO DC Super Heroes: The Flash
LEGO DC Super Heroes: The Flash

En LEGO DC Super Heroes: The Flash Flash está condenado a vivir el mismo día una y otra vez, pero teniendo cada unas de las repeticiones una variación respecto al anterior, como puede ser la pérdida de los poderes o incluso su despido de la Liga de la justicia. Por lo tanto el personaje estará obligado a encontrar un modo para restaurar la normalidad y así salvar tanto a él mismo como al propio mundo.

Datos Técnicos:

Clic Para Expandir

General
Unique ID : 235495252423352486765625522643365400591 (0xB12ABC6007EE95C19B5214053E56100F)
Complete name : M:\Redondito_\Subidas\Lego.DC.Comics.The Flash.Lat.mkv
Format : Matroska
Format version : Version 4 / Version 2
File size : 3.14 GiB
Duration : 1 h 18 min
Overall bit rate : 5 730 kb/s
Movie name : Twitter: @Redo_downloads
Encoded date : UTC 2018-02-15 12:28:36
Writing application : mkvmerge v8.3.0 (‘Over the Horizon’) 64bit
Writing library : libebml v1.3.1 + libmatroska v1.4.2
Attachments : redondito.net.htm / Redondito_.png

Video
ID : 1
Format : AVC
Format/Info : Advanced Video Codec
Format profile : High@L4
Format settings : CABAC / 4 Ref Frames
Format settings, CABAC : Yes
Format settings, ReFrames : 4 frames
Codec ID : V_MPEG4/ISO/AVC
Duration : 1 h 18 min
Bit rate : 5 088 kb/s
Width : 1 912 pixels
Height : 1 072 pixels
Display aspect ratio : 16:9
Frame rate mode : Constant
Frame rate : 23.976 (23976/1000) FPS
Color space : YUV
Chroma subsampling : 4:2:0
Bit depth : 8 bits
Scan type : Progressive
Bits/(Pixel*Frame) : 0.104
Stream size : 2.79 GiB (89%)
Title : Lego flash
Language : English
Default : Yes
Forced : No
Color range : Limited
Color primaries : BT.709
Transfer characteristics : BT.709
Matrix coefficients : BT.709

Audio #1
ID : 2
Format : AC-3
Format/Info : Audio Coding 3
Codec ID : A_AC3
Duration : 1 h 18 min
Bit rate mode : Constant
Bit rate : 256 kb/s
Channel(s) : 2 channels
Channel positions : Front: L R
Sampling rate : 48.0 kHz
Frame rate : 31.250 FPS (1536 SPF)
Bit depth : 16 bits
Compression mode : Lossy
Stream size : 144 MiB (4%)
Title : Latino
Language : Spanish
Service kind : Complete Main
Default : Yes
Forced : Yes

Audio #2
ID : 3
Format : AC-3
Format/Info : Audio Coding 3
Codec ID : A_AC3
Duration : 1 h 18 min
Bit rate mode : Constant
Bit rate : 384 kb/s
Channel(s) : 6 channels
Channel positions : Front: L C R, Side: L R, LFE
Sampling rate : 48.0 kHz
Frame rate : 31.250 FPS (1536 SPF)
Bit depth : 16 bits
Compression mode : Lossy
Stream size : 215 MiB (7%)
Title : Ingles
Language : English
Service kind : Complete Main
Default : No
Forced : No

Text #1
ID : 4
Format : ASS
Codec ID : S_TEXT/ASS
Codec ID/Info : Advanced Sub Station Alpha
Duration : 1 h 14 min
Bit rate : 1 b/s
Count of elements : 21
Compression mode : Lossless
Stream size : 943 Bytes (0%)
Title : Forzados
Language : Latin
Default : Yes
Forced : Yes

Text #2
ID : 5
Format : ASS
Codec ID : S_TEXT/ASS
Codec ID/Info : Advanced Sub Station Alpha
Duration : 1 h 15 min
Bit rate : 128 b/s
Count of elements : 1233
Compression mode : Lossless
Stream size : 71.0 KiB (0%)
Title : Español
Language : Spanish
Default : No
Forced : No

[collapse]
LINK DE DESCARGA

Archivos con 5% de recuperación

loading...

DESCARGA DESDE TODOS LOS SERVIDORES A VELOCIDAD PREMIUM!