Castlevania Season 02 Completa [DUAL LATINO] [MKV] [1080p] [GD-ZP-OP+]

Posted on Posted in Series
Castlevania Season 02 [DUAL LATINO]
Castlevania Season 02 [DUAL LATINO]

Basada en la mítica saga de juegos creada por Konami en mil novecientos ochenta y seis, la segunda temporada de la serie de ‘Castlevania’ amolda la tercera entrega de los juegos para videoconsolas producido para la NES, ‘Castlevania III: Dracula’s Curse’, lanzada en mil novecientos ochenta y nueve.
Año mil cuatrocientos setenta y seis, el conde Drácula está ocasionando el terror en Europa del Este. Tras arrasar múltiples pueblos con su ejército de monstruos, la Iglesia pide la ayuda de Trevor Belmont, el único superviviente del clan Belmont, una poderosa familia de cazavampiros.

Datos Técnicos:

Clic Para Expandir

General
Unique ID : 293932999649539425097422564161280164946 (0xDD216FC2D886E3FA0F9B75008F6E4452)
Complete name : Castelvania.S02E01.Lat.mkv
Format : Matroska
Format version : Version 4 / Version 2
File size : 1.49 GiB
Duration : 25 min 12 s
Overall bit rate mode : Variable
Overall bit rate : 8 448 kb/s
Movie name : www.redondito.net
Encoded date : UTC 2018-10-26 21:13:47
Writing application : mkvmerge v25.0.0 (‘Prog Noir’) 32-bit
Writing library : libebml v1.3.6 + libmatroska v1.4.9

Video
ID : 1
Format : AVC
Format/Info : Advanced Video Codec
Format profile : Main@L4
Format settings, CABAC : Yes
Format settings, ReFrames : 3 frames
Codec ID : V_MPEG4/ISO/AVC
Duration : 25 min 11 s
Bit rate mode : Variable
Bit rate : 7 500 kb/s
Maximum bit rate : 11.2 Mb/s
Width : 1 920 pixels
Height : 1 080 pixels
Display aspect ratio : 16:9
Frame rate mode : Constant
Frame rate : 23.976 (24000/1001) FPS
Color space : YUV
Chroma subsampling : 4:2:0
Bit depth : 8 bits
Scan type : Progressive
Bits/(Pixel*Frame) : 0.151
Stream size : 1.28 GiB (86%)
Title : English
Writing library : x264 core 148 r2715 7e75228
Encoding settings : cabac=1 / ref=3 / deblock=1:0:0 / analyse=0x1:0x111 / me=umh / subme=10 / psy=1 / psy_rd=1.00:0.00 / mixed_ref=1 / me_range=24 / chroma_me=1 / trellis=2 / 8x8dct=0 / cqm=0 / deadzone=21,11 / fast_pskip=1 / chroma_qp_offset=-2 / threads=8 / lookahead_threads=1 / sliced_threads=0 / nr=0 / decimate=1 / interlaced=0 / bluray_compat=0 / stitchable=1 / constrained_intra=0 / bframes=2 / b_pyramid=0 / b_adapt=2 / b_bias=0 / direct=3 / weightb=1 / open_gop=0 / weightp=2 / keyint=48 / keyint_min=25 / scenecut=0 / intra_refresh=0 / rc_lookahead=48 / rc=2pass / mbtree=1 / bitrate=7500 / ratetol=1.0 / qcomp=0.50 / qpmin=6 / qpmax=51 / qpstep=4 / cplxblur=20.0 / qblur=0.5 / vbv_maxrate=11250 / vbv_bufsize=15000 / nal_hrd=vbr / filler=0 / ip_ratio=1.40 / aq=1:1.00
Default : Yes
Forced : No

Audio #1
ID : 2
Format : AC-3
Format/Info : Audio Coding 3
Mode extension : CM (complete main)
Format settings, Endianness : Big
Codec ID : A_AC3
Duration : 25 min 12 s
Bit rate mode : Constant
Bit rate : 384 kb/s
Channel(s) : 6 channels
Channel positions : Front: L C R, Side: L R, LFE
Sampling rate : 48.0 kHz
Frame rate : 31.250 FPS (1536 spf)
Bit depth : 16 bits
Compression mode : Lossy
Stream size : 69.2 MiB (5%)
Title : Latino
Language : Spanish
Default : No
Forced : No

Audio #2
ID : 3
Format : AC-3
Format/Info : Audio Coding 3
Mode extension : CM (complete main)
Format settings, Endianness : Big
Codec ID : A_AC3
Duration : 25 min 12 s
Bit rate mode : Constant
Bit rate : 384 kb/s
Channel(s) : 6 channels
Channel positions : Front: L C R, Side: L R, LFE
Sampling rate : 48.0 kHz
Frame rate : 31.250 FPS (1536 spf)
Bit depth : 16 bits
Compression mode : Lossy
Stream size : 69.2 MiB (5%)
Title : English
Language : English
Default : No
Forced : No

Audio #3
ID : 4
Format : AC-3
Format/Info : Audio Coding 3
Mode extension : CM (complete main)
Format settings, Endianness : Big
Codec ID : A_AC3
Duration : 25 min 12 s
Bit rate mode : Constant
Bit rate : 384 kb/s
Channel(s) : 6 channels
Channel positions : Front: L C R, Side: L R, LFE
Sampling rate : 48.0 kHz
Frame rate : 31.250 FPS (1536 spf)
Bit depth : 16 bits
Compression mode : Lossy
Stream size : 69.2 MiB (5%)
Title : Japanese
Language : Japanese
Default : No
Forced : No

Text #1
ID : 5
Format : UTF-8
Codec ID : S_TEXT/UTF8
Codec ID/Info : UTF-8 Plain Text
Duration : 24 min 41 s
Bit rate : 0 b/s
Count of elements : 4
Stream size : 83.0 Bytes (0%)
Title : Completos
Language : Spanish
Default : No
Forced : Yes

Text #2
ID : 6
Format : UTF-8
Codec ID : S_TEXT/UTF8
Codec ID/Info : UTF-8 Plain Text
Duration : 24 min 41 s
Bit rate : 53 b/s
Count of elements : 242
Stream size : 9.63 KiB (0%)
Title : Completos
Language : Spanish
Default : No
Forced : No

[collapse]
LINK DE DESCARGA

Archivos con 5% de recuperación

loading...

DESCARGA DESDE TODOS LOS SERVIDORES A VELOCIDAD PREMIUM!

Dejá un comentario

Tu dirección de correo electrónico no será publicada. Los campos necesarios están marcados *