Ant-Man and The Wasp [DUAL LATINO] [MKV] [1920x804p] [GD-ZP-OP+]

Posted on Posted in Peliculas
Ant-Man and The Wasp [LATINO]
Ant-Man and The Wasp [DUAL LATINO]

Scott Lang vuelve a enfundarse el traje de Ant-Man para pelear codo con codo junto a la Avispa. La misión revelará a los dos superhéroes un secreto terrible y los enfrentará a su enemigo más poderoso.

Datos Técnicos:

Clic Para Expandir

General
Unique ID : 37243568236212446621055485549889936595 (0x1C04D9AF3D5AB233D89C44D267AF5CD3)
Complete name : Ant.Man.and.The.Wasp.2018.WEB-DL.Lat.mkv
Format : Matroska
Format version : Version 4 / Version 2
File size : 4.25 GiB
Duration : 1 h 58 min
Overall bit rate : 5 149 kb/s
Movie name : www.redondito.net
Encoded date : UTC 2018-10-02 05:02:50
Writing application : mkvmerge v21.0.0 (‘Tardigrades Will Inherit The Earth’) 64-bit
Writing library : libebml v1.3.5 + libmatroska v1.4.8

Video
ID : 1
Format : AVC
Format/Info : Advanced Video Codec
Format profile : High@L4
Format settings, CABAC : Yes
Format settings, ReFrames : 5 frames
Codec ID : V_MPEG4/ISO/AVC
Duration : 1 h 58 min
Bit rate : 4 507 kb/s
Width : 1 920 pixels
Height : 804 pixels
Display aspect ratio : 2.40:1
Frame rate mode : Constant
Frame rate : 23.976 (24000/1001) FPS
Color space : YUV
Chroma subsampling : 4:2:0
Bit depth : 8 bits
Scan type : Progressive
Bits/(Pixel*Frame) : 0.122
Stream size : 3.72 GiB (88%)
Language : English
Default : Yes
Forced : No
Color range : Limited
Color primaries : BT.709
Transfer characteristics : BT.709
Matrix coefficients : BT.709

Audio #1
ID : 2
Format : AC-3
Format/Info : Audio Coding 3
Mode extension : CM (complete main)
Format settings, Endianness : Big
Codec ID : A_AC3
Duration : 1 h 58 min
Bit rate mode : Constant
Bit rate : 256 kb/s
Channel(s) : 2 channels
Channel positions : Front: L R
Sampling rate : 48.0 kHz
Frame rate : 31.250 FPS (1536 spf)
Bit depth : 16 bits
Compression mode : Lossy
Delay relative to video : -42 ms
Stream size : 216 MiB (5%)
Title : Latino
Language : Spanish
Default : Yes
Forced : Yes

Audio #2
ID : 3
Format : AC-3
Format/Info : Audio Coding 3
Mode extension : CM (complete main)
Format settings, Endianness : Big
Codec ID : A_AC3
Duration : 1 h 58 min
Bit rate mode : Constant
Bit rate : 384 kb/s
Channel(s) : 6 channels
Channel positions : Front: L C R, Side: L R, LFE
Sampling rate : 48.0 kHz
Frame rate : 31.250 FPS (1536 spf)
Bit depth : 16 bits
Compression mode : Lossy
Delay relative to video : -42 ms
Stream size : 324 MiB (7%)
Title : Inglés
Language : English
Default : No
Forced : No

Text #1
ID : 4
Format : UTF-8
Codec ID : S_TEXT/UTF8
Codec ID/Info : UTF-8 Plain Text
Duration : 1 h 54 min
Bit rate : 0 b/s
Count of elements : 8
Stream size : 228 Bytes (0%)
Title : Forzados
Language : Spanish
Default : Yes
Forced : Yes

Text #2
ID : 5
Format : UTF-8
Codec ID : S_TEXT/UTF8
Codec ID/Info : UTF-8 Plain Text
Duration : 1 h 57 min
Bit rate : 57 b/s
Count of elements : 1794
Stream size : 49.9 KiB (0%)
Title : Completos
Language : Spanish
Default : No
Forced : No

RAR LIST:
1 496M 4N7.M4N.4ND.7H3.W459.2018.W38-DL.L471.rev
2 496M 4N7.M4N.4ND.7H3.W459.2018.W38-DL.L47.r00
3 496M 4N7.M4N.4ND.7H3.W459.2018.W38-DL.L47.r01
4 496M 4N7.M4N.4ND.7H3.W459.2018.W38-DL.L47.r02
5 496M 4N7.M4N.4ND.7H3.W459.2018.W38-DL.L47.r03
6 496M 4N7.M4N.4ND.7H3.W459.2018.W38-DL.L47.r04
7 496M 4N7.M4N.4ND.7H3.W459.2018.W38-DL.L47.r05
8 496M 4N7.M4N.4ND.7H3.W459.2018.W38-DL.L47.r06
9 400M 4N7.M4N.4ND.7H3.W459.2018.W38-DL.L47.r07
10 496M 4N7.M4N.4ND.7H3.W459.2018.W38-DL.L47.rar
11 4.0K 4N7.M4N.4ND.7H3.W459.2018.W38-DL.L47.sfv
12 4.8G total

[collapse]
LINK DE DESCARGA

Archivos con 5% de recuperación

loading...

DESCARGA DESDE TODOS LOS SERVIDORES A VELOCIDAD PREMIUM!

Dejá un comentario

Tu dirección de correo electrónico no será publicada. Los campos necesarios están marcados *